Видео-Конверторы и все, что с ними связано...

-Fantik-

злыдень
В общем такая тема я думаю нужна.

Первый вопрос:

Помогите найти хорошую программу, дабы с легкостью конвертировать в хорошее качество вот такое видео: Deposit Files
Хочется много настроек, хорошее качество и сжатие на выходе.

просто тут 6 сек = 11Мб

Video: MPEG4 Video (H264) 1920x1080 25.00fps [Video]
Audio: Dolby AC3 48000Hz stereo [Audio]

General
ID : 1
Complete name : *.MTS
Format : BDAV
Format/Info : Blu-ray Video
File size : 11.9 MiB
Duration : 6s 210ms
Overall bit rate : 16.1 Mbps
Maximum Overall bit rate : 18.0 Mbps

Video
ID : 4113 (0x1011)
Menu ID : 1 (0x1)
Format : AVC
Format/Info : Advanced Video Codec
Format profile : High@L4.0
Format settings, CABAC : Yes
Format settings, ReFrames : 4 frames
Format settings, GOP : M=1, N=24
Duration : 6s 80ms
Bit rate mode : Variable
Bit rate : 15.2 Mbps
Maximum bit rate : 16.8 Mbps
Width : 1 920 pixels
Height : 1 080 pixels
Display aspect ratio : 16:9
Frame rate : 25.000 fps
Color space : YUV
Chroma subsampling : 4:2:0
Bit depth : 8 bits
Scan type : Interlaced
Scan order : Top Field First
Bits/(Pixel*Frame) : 0.293
Stream size : 11.0 MiB (92%)

Audio
ID : 4352 (0x1100)
Menu ID : 1 (0x1)
Format : AC-3
Format/Info : Audio Coding 3
Mode extension : CM (complete main)
Duration : 6s 240ms
Bit rate mode : Constant
Bit rate : 256 Kbps
Channel(s) : 2 channels
Channel positions : Front: L R
Sampling rate : 48.0 KHz
Video delay : -80ms
Stream size : 195 KiB (2%)

Text
ID : 4608 (0x1200)
Menu ID : 1 (0x1)
Format : PGS
Duration : 5s 696ms
Video delay : -80ms


Такую информацию выдает Media Payer Classic


Качал кучу прог, в основном все платные, ни чего хорошего пока не попалось.
 

-Fantik-

злыдень
так пинакл - профессиональная студия, весит много, мне бы что-нить что на флэшке таскать можно, чтобы еще желательно резало, дорожки менять можно было...
 

JORDAN

Умный чукча
Попробуйте Xvid4PSP 5. Отличный конвертер российского происхождения.Конвертит всё и во всё с превосходнейшим качеством. Правда много настроек, но разобраться при желании можно. Сам конвертил DVD и HD в MKV с 2-3ёх кратным сжатием. Качеством очень доволен. При двух или трёх проходах конвертация занимает много времени, но результат того стоит
 

-Fantik-

злыдень
Xvid4PSP 5 - Скачал, поставил, к стати требуется еще и Framework 3.0 ну да бог с ним, а где выставить разрешение файла на выходе? мне мои 1940х1080 ни к чему... мне всего то надо порядка 700х... чтобы на обычном DVD-Player-е смотреть, на обычных теликах и тд и тп. может я что-то не увидел?
 
Последнее редактирование:
Сверху